Torrent details for "Zero 2018 Hindi 720p PRE-DVDRip x264 [MW]"

Loading...
Torrent details
Cover
Download
Torrent rating (0 rated)
Controls:
Category:
Language:
Hindi
Total Size:
1.18 GB
Info Hash:
653be545312a05f83a20662c28c9f4aeb57c0da7
Added By:
Added:  
22-12-2018 09:19
Views:
687
Health:
Seeds:
82
Leechers:
2
Completed:
13,788

File List : 
Title:
Zero (2018)
Genre:
Drama, Romance
Runtime:
164 min    -    Rating: 7.4
Director:
Plot:
The story revolves around Bauua Singh (Shah Rukh Khan), a vertically challenged man, who is full of charm and wit, with a pinch of arrogance. Born to a wealthy family and raised in an environment of affluence and indulgence, Bauua was never failed by Meerut or its people. But when he meets two women (Katrina Kaif, Anushka Sharma), his experiences with these women take him on a journey to complete his 'incompleteness' and broaden his horizons to find a purpose he never knew he had.

Description




General
Format                                   : Matroska
Format version                           : Version 4 / Version 2
File size                                : 1.18 GiB
Duration                                 : 2 h 30 min
Overall bit rate                         : 1 126 kb/s

Video
ID                                       : 1
Format                                   : AVC
Format/Info                              : Advanced Video Codec
Format profile                           : [email protected]
Format settings                          : CABAC / 4 Ref Frames
Format settings, CABAC                   : Yes
Format settings, RefFrames               : 4 frames
Codec ID                                 : V_MPEG4/ISO/AVC
Duration                                 : 2 h 30 min
Bit rate                                 : 1 000 kb/s
Width                                    : 1 280 pixels
Height                                   : 544 pixels
Display aspect ratio                     : 2.35:1
Frame rate mode                          : Constant
Frame rate                               : 25.000 FPS
Color space                              : YUV
Chroma subsampling                       : 4:2:0
Bit depth                                : 8 bits
Scan type                                : Progressive
Bits/(Pixel*Frame)                       : 0.057
Stream size                              : 1.04 GiB (88%)
Writing library                          : x264 core 155 r2901 7d0ff22
Default                                  : Yes
Forced                                   : No

Audio
ID                                       : 2
Format                                   : AAC
Format/Info                              : Advanced Audio Codec
Format profile                           : LC
Codec ID                                 : A_AAC-2
Duration                                 : 2 h 30 min
Bit rate                                 : 129 kb/s
Channel(s)                               : 2 channels
Channel positions                        : Front: L R
Sampling rate                            : 48.0 kHz
Frame rate                               : 46.875 FPS (1024 SPF)
Compression mode                         : Lossy
Stream size                              : 138 MiB (11%)
Language                                 : Hindi
Default                                  : Yes
Forced                                   : No


Click To View Image

https://pichub.site/image/kOE3I
https://pichub.site/image/kOV88
https://pichub.site/image/kOclJ
https://pichub.site/image/kOkq5
https://pichub.site/image/kOyyh
https://pichub.site/image/kOhFr


  User comments

No comments have been posted yet.


Post anonymous comment
:) :( :D :P :-) B) 8o :? 8) ;) :-* :-( :| O:-D :-@ :o) brb :warn :help :bad :love :idea :bomb :!


CAPTCHA Image