Torrent details for "Monster Hunt 2 2018 720p BluRay x264 Dual Audio [Hindi 2.0 - Chinese 2.0] ESub [MW]"

Loading...
Torrent details
Cover
Download
Torrent rating (0 rated)
Controls:
Category:
Language:
Hindi
Total Size:
994.97 MB
Info Hash:
f22aec7f16a9acc3e5c575bd1496abf45b78225f
Added By:
Added:  
25-12-2018 10:08
Views:
344
Health:
Seeds:
6
Leechers:
3
Completed:
208

File List : 
Title:
Genre:
Adventure, Comedy, Sci-Fi
Runtime:
110 min    -    Rating: 5.3
Director:
Plot:
n/A

Description




General
Format                                   : Matroska
Format version                           : Version 4 / Version 2
File size                                : 995 MiB
Duration                                 : 1 h 50 min
Overall bit rate                         : 1 261 kb/s

Video
ID                                       : 1
Format                                   : AVC
Format/Info                              : Advanced Video Codec
Format profile                           : [email protected]
Format settings                          : CABAC / 4 Ref Frames
Format settings, CABAC                   : Yes
Format settings, RefFrames               : 4 frames
Codec ID                                 : V_MPEG4/ISO/AVC
Duration                                 : 1 h 50 min
Bit rate                                 : 1 050 kb/s
Width                                    : 1 280 pixels
Height                                   : 534 pixels
Display aspect ratio                     : 2.40:1
Original display aspect ratio            : 2.40:1
Frame rate mode                          : Constant
Frame rate                               : 23.976 (24000/1001) FPS
Color space                              : YUV
Chroma subsampling                       : 4:2:0
Bit depth                                : 8 bits
Scan type                                : Progressive
Bits/(Pixel*Frame)                       : 0.064
Stream size                              : 828 MiB (83%)
Writing library                          : x264 core 152
Default                                  : Yes
Forced                                   : No

Audio #1
ID                                       : 2
Format                                   : AAC
Format/Info                              : Advanced Audio Codec
Format profile                           : LC
Codec ID                                 : A_AAC-2
Duration                                 : 1 h 50 min
Bit rate                                 : 128 kb/s
Channel(s)                               : 2 channels
Channel positions                        : Front: L R
Sampling rate                            : 48.0 kHz
Frame rate                               : 46.875 FPS (1024 SPF)
Compression mode                         : Lossy
Stream size                              : 101 MiB (10%)
Language                                 : Hindi
Default                                  : Yes
Forced                                   : No

Audio #2
ID                                       : 4
Format                                   : AAC
Format/Info                              : Advanced Audio Codec
Format profile                           : LC
Codec ID                                 : A_AAC-2
Duration                                 : 1 h 50 min
Bit rate                                 : 81.0 kb/s
Channel(s)                               : 2 channels
Channel positions                        : Front: L R
Sampling rate                            : 48.0 kHz
Frame rate                               : 46.875 FPS (1024 SPF)
Compression mode                         : Lossy
Stream size                              : 63.9 MiB (6%)
Language                                 : Chinese
Default                                  : No
Forced                                   : No

Text
ID                                       : 3
Format                                   : UTF-8
Codec ID                                 : S_TEXT/UTF8
Codec ID/Info                            : UTF-8 Plain Text
Duration                                 : 1 h 44 min
Bit rate                                 : 38 b/s
Count of elements                        : 1316
Stream size                              : 29.8 KiB (0%)
Default                                  : Yes
Forced                                   : No


Click To View Image

https://pichub.site/image/kSND6
https://pichub.site/image/kSvs4
https://pichub.site/image/kS0Yp
https://pichub.site/image/kSLzy
https://pichub.site/image/kSr2b
https://pichub.site/image/kS2wV


Similar torrents

Name 
DL
Uploader
Size 
S/L 
Added

  User comments

No comments have been posted yet.


Post anonymous comment
:) :( :D :P :-) B) 8o :? 8) ;) :-* :-( :| O:-D :-@ :o) brb :warn :help :bad :love :idea :bomb :!


CAPTCHA Image