Torrent details for "Dakuaan Da Munda (2018) Punjabi 720p WEB-DL x264 AC3 5.1 ESub-Sun George"

Loading...
Torrent details
Cover
Download
Torrent rating (0 rated)
Controls:
Category:
Language:
Other / Multiple Other / Multiple
Total Size:
1.86 GB
Info Hash:
bf1ebb89462b47f4963e0bb85784b97135a8e351
Added By:
Added:  
11-01-2019 10:32 (edited 21-02-2019 09:40) by HB11:_moderator::_male::_sitelover::_junkie::_sun:
Views:
137
Health:
Seeds:
1
Leechers:
3
Completed:
65

File List : 
Title:
Genre:
Action, Biography, Drama
Runtime:
120 min    -    Rating: 8.1
Plot:
The film is based on the acclaimed book, Dakkuan da Munda, an autobiography of the famous writer and journalist Mintu Gurusariya. Mintu became a drug addict when he was a young Kabbadi player. Exposure to drugs also introduced him to the crime market. But today, he is an inspiration for the youth and their families as he managed to come out of his shell and break his ties with drugs and crime.

Description
Dakuaan Da Munda (2018) Punjabi 720p WEB-DL x264 AC3 5.1 ESub-Sun George





https://www.imdb.com/title/tt8409498/








For Direct Links Visit: http://FilmMaza.Org













===================================================================

Source : Telly (Thanks)

General
Format                                   : Matroska
Format version                           : Version 4 / Version 2
File size                                : 1.83 GiB
Duration                                 : 2 h 20 min
Overall bit rate                         : 1 864 kb/s
Movie name : Dakuaan Da Munda (2018) Punjabi 720p WEB-DL x264 AC3 5.1 ESub-Sun George

===================================================================

Video
ID                                       : 1
Format                                   : AVC
Format/Info                              : Advanced Video Codec
Format profile                           : [email protected]
Format settings                          : CABAC / 4 Ref Frames
Format settings, CABAC                   : Yes
Format settings, RefFrames               : 4 frames
Codec ID                                 : V_MPEG4/ISO/AVC
Duration                                 : 2 h 20 min
Bit rate                                 : 1 500 kb/s
Width                                    : 1 280 pixels
Height                                   : 544 pixels
Display aspect ratio                     : 2.35:1
Frame rate mode                          : Variable
Frame rate                               : 24.000 FPS
Color space                              : YUV
Chroma subsampling                       : 4:2:0
Bit depth                                : 8 bits
Scan type                                : Progressive
Bits/(Pixel*Frame)                       : 0.090
Stream size                              : 1.45 GiB (79%)
Title                                    : Sun George

===================================================================

Audio
ID                                       : 2
Format                                   : AC-3
Format/Info                              : Audio Coding 3
Codec ID                                 : A_AC3
Duration                                 : 2 h 20 min
Bit rate mode                            : Constant
Bit rate                                 : 384 kb/s
Channel(s)                               : 6 channels
Channel positions                        : Front: L C R, Side: L R, LFE
Sampling rate                            : 48.0 kHz
Frame rate                               : 31.250 FPS (1536 SPF)
Bit depth                                : 16 bits
Compression mode                         : Lossy
Stream size                              : 387 MiB (21%)
Title                                    : Punjabi-Sun George
Language                                 : Panjabi
Service kind                             : Complete Main
Default                                  : Yes
Forced                                   : No

Text
ID                                       : 3
Format                                   : ASS
Codec ID                                 : S_TEXT/ASS
Codec ID/Info                            : Advanced Sub Station Alpha
Duration                                 : 2 h 19 min
Bit rate                                 : 102 b/s
Count of elements                        : 2005
Compression mode                         : Lossless
Stream size                              : 104 KiB (0%)
Title                                    : Sun George
Writing library                          : Lavc57.42.100 ssa
Language                                 : English
Default                                  : Yes
Forced                                   : Yes















  User comments

No comments have been posted yet.


Post anonymous comment
:) :( :D :P :-) B) 8o :? 8) ;) :-* :-( :| O:-D :-@ :o) brb :warn :help :bad :love :idea :bomb :!


CAPTCHA Image