Torrent details for "Love Sonia 2018 Hindi 720p WEB-DL x264 ESub [MW]"

Loading...
Torrent details
Cover
Download
Torrent rating (0 rated)
Controls:
Category:
Language:
Hindi
Total Size:
994.64 MB
Info Hash:
69beeebaeaafbf5b38c532823056a67e05ec8f42
Added By:
Added:  
29-01-2019 12:51
Views:
150
Health:
Seeds:
15
Leechers:
8
Completed:
129

File List : 
Title:
Love Sonia (2018)
Genre:
Drama
Runtime:
120 min    -    Rating: 7.6
Plot:
Inspired by real life events, Love Sonia is the story of a young girl's journey to rescue her sister from the dangerous world of international sex trafficking.

Description




General
Format                                   : Matroska
Format version                           : Version 4 / Version 2
File size                                : 995 MiB
Duration                                 : 2 h 3 min
Overall bit rate                         : 1 124 kb/s

Video
ID                                       : 1
Format                                   : AVC
Format/Info                              : Advanced Video Codec
Format profile                           : [email protected]
Format settings                          : CABAC / 4 Ref Frames
Format settings, CABAC                   : Yes
Format settings, RefFrames               : 4 frames
Codec ID                                 : V_MPEG4/ISO/AVC
Duration                                 : 2 h 3 min
Bit rate                                 : 1 000 kb/s
Width                                    : 1 280 pixels
Height                                   : 536 pixels
Display aspect ratio                     : 2.40:1
Frame rate mode                          : Constant
Frame rate                               : 24.000 FPS
Color space                              : YUV
Chroma subsampling                       : 4:2:0
Bit depth                                : 8 bits
Scan type                                : Progressive
Bits/(Pixel*Frame)                       : 0.061
Stream size                              : 879 MiB (88%)
Writing library                          : x264 core 157 r2935 545de2f
Default                                  : Yes
Forced                                   : No

Audio
ID                                       : 2
Format                                   : AAC
Format/Info                              : Advanced Audio Codec
Format profile                           : LC
Codec ID                                 : A_AAC-2
Duration                                 : 2 h 3 min
Bit rate                                 : 128 kb/s
Channel(s)                               : 2 channels
Channel positions                        : Front: L R
Sampling rate                            : 48.0 kHz
Frame rate                               : 46.875 FPS (1024 SPF)
Compression mode                         : Lossy
Stream size                              : 113 MiB (11%)
Language                                 : Hindi
Default                                  : Yes
Forced                                   : No

Text
ID                                       : 3
Format                                   : UTF-8
Codec ID                                 : S_TEXT/UTF8
Codec ID/Info                            : UTF-8 Plain Text
Duration                                 : 2 h 0 min
Bit rate                                 : 44 b/s
Count of elements                        : 1497
Stream size                              : 39.1 KiB (0%)
Default                                  : Yes
Forced                                   : No


Click To View Image

https://pichub.site/image/kUE8g
https://pichub.site/image/kUDaZ
https://pichub.site/image/kU7qX
https://pichub.site/image/kUdlI
https://pichub.site/image/kUcy8


  User comments

No comments have been posted yet.


Post anonymous comment
:) :( :D :P :-) B) 8o :? 8) ;) :-* :-( :| O:-D :-@ :o) brb :warn :help :bad :love :idea :bomb :!


CAPTCHA Image