Poll

Story of my life
Slumdog Millionaire
22%

Inception
45%

Titanic
21%

Freaky Friday
13%

Votes: 78


Log in or register
to cast your vote!

  Torrent details for "Stratton 2017 720p BluRay x264 Dual Audio [Hindi 2.0 - English 2.0] ESub [MW]"

Loading...
Torrent details
Cover
Download
Torrent rating (0 rated)
Controls:
Category:
Language:
English English
Total Size:
825.17 MB
Info Hash:
c5bf2c7b863662b3edf29f4b65577e4ac163b4e1
Added By:
Added:  
29-01-2019 12:52
Views:
214
Health:
Seeds:
15
Leechers:
3
Completed:
265

File List : 
Title:
Stratton (2017)
Genre:
Action, Thriller
Runtime:
94 min    -    Rating: 4.8
Director:
Plot:
A British Special Boat Service commando tracks down an international terrorist cell.

Description




General
Format                                   : Matroska
Format version                           : Version 4 / Version 2
File size                                : 825 MiB
Duration                                 : 1 h 34 min
Overall bit rate                         : 1 221 kb/s

Video
ID                                       : 1
Format                                   : AVC
Format/Info                              : Advanced Video Codec
Format profile                           : [email protected]
Format settings                          : CABAC / 4 Ref Frames
Format settings, CABAC                   : Yes
Format settings, RefFrames               : 4 frames
Codec ID                                 : V_MPEG4/ISO/AVC
Duration                                 : 1 h 34 min
Bit rate                                 : 900 kb/s
Width                                    : 1 280 pixels
Height                                   : 534 pixels
Display aspect ratio                     : 2.40:1
Original display aspect ratio            : 2.40:1
Frame rate mode                          : Constant
Frame rate                               : 23.976 (24000/1001) FPS
Color space                              : YUV
Chroma subsampling                       : 4:2:0
Bit depth                                : 8 bits
Scan type                                : Progressive
Bits/(Pixel*Frame)                       : 0.055
Stream size                              : 608 MiB (74%)
Writing library                          : x264 core 148
Default                                  : Yes
Forced                                   : No

Audio #1
ID                                       : 2
Format                                   : AAC
Format/Info                              : Advanced Audio Codec
Format profile                           : LC
Codec ID                                 : A_AAC-2
Duration                                 : 1 h 34 min
Bit rate                                 : 192 kb/s
Channel(s)                               : 2 channels
Channel positions                        : Front: L R
Sampling rate                            : 48.0 kHz
Frame rate                               : 46.875 FPS (1024 SPF)
Compression mode                         : Lossy
Stream size                              : 130 MiB (16%)
Language                                 : Hindi
Default                                  : Yes
Forced                                   : No

Audio #2
ID                                       : 3
Format                                   : AAC
Format/Info                              : Advanced Audio Codec
Format profile                           : LC
Codec ID                                 : A_AAC-2
Duration                                 : 1 h 34 min
Bit rate                                 : 126 kb/s
Channel(s)                               : 2 channels
Channel positions                        : Front: L R
Sampling rate                            : 48.0 kHz
Frame rate                               : 46.875 FPS (1024 SPF)
Compression mode                         : Lossy
Stream size                              : 85.2 MiB (10%)
Language                                 : English
Default                                  : No
Forced                                   : No

Text
ID                                       : 4
Format                                   : UTF-8
Codec ID                                 : S_TEXT/UTF8
Codec ID/Info                            : UTF-8 Plain Text
Duration                                 : 1 h 26 min
Bit rate                                 : 50 b/s
Count of elements                        : 933
Stream size                              : 32.1 KiB (0%)
Default                                  : No
Forced                                   : No


Click To View Image

https://pichub.site/image/kUkLJ
https://pichub.site/image/kUCdh
https://pichub.site/image/kUhuj
https://pichub.site/image/kUi3r
https://pichub.site/image/kU88Q


Similar torrents

  No similar torrents were found.

  User comments

No comments have been posted yet.


Post anonymous comment
:) :( :D :P :-) B) 8o :? 8) ;) :-* :-( :| O:-D :-@ :o) brb :warn :help :bad :love :idea :bomb :!


CAPTCHA Image