Torrent details for "Overdrive 2017 720p BluRay x264 Dual Audio [Hindi 2.0 - English 2.0] ESub [MW]"    Log in to bookmark

Loading...
Loading...
Torrent details
Cover
Download
Torrent rating (0 rated)
Controls:
Category:
Language:
English English
Total Size:
796.17 MB
Info Hash:
659539175f57fb956684c9ce7e8dda6fb9877410
Added By:
Added:  
29-01-2019 13:40
Views:
350
Health:
Seeds:
7
Leechers:
6
Completed:
370

File List (1) : 
Title:
Overdrive (2017)
Genre:
Action, Thriller
Runtime:
93 min    -    Rating: 5.4
Plot:
The story centers on two car thieves, brothers, who journey to the south of France for new opportunities and wind up in the cross hairs of the local crime boss. Andrew and Garrett Foster (Scott Eastwood and Freddie Thorp) are thieves who specialize in luxury cars, only the most expensive cars. They've been hired to steal a gorgeous Bugatti 1937 valued million euros, so they head to the south of France for the job. But they get caught, and Jacomo Morier (Simon Abkarian), the local crime boss who owns the Bugatti, doesn't take it lightly. In exchange for their lives the two brothers will have to steal a car from Max Klemp (Clemens Schick), Morier's arch-rival, and not any car, Morier wants them to steal Klemp's 1962 Ferrari 250 GTO, his most prized car.

Description




General
Format                                   : Matroska
Format version                           : Version 4 / Version 2
File size                                : 796 MiB
Duration                                 : 1 h 33 min
Overall bit rate                         : 1 191 kb/s

Video
ID                                       : 1
Format                                   : AVC
Format/Info                              : Advanced Video Codec
Format profile                           : [email protected]
Format settings                          : CABAC / 4 Ref Frames
Format settings, CABAC                   : Yes
Format settings, RefFrames               : 4 frames
Codec ID                                 : V_MPEG4/ISO/AVC
Duration                                 : 1 h 33 min
Bit rate                                 : 900 kb/s
Width                                    : 1 280 pixels
Height                                   : 534 pixels
Display aspect ratio                     : 2.40:1
Original display aspect ratio            : 2.40:1
Frame rate mode                          : Constant
Frame rate                               : 23.976 FPS
Color space                              : YUV
Chroma subsampling                       : 4:2:0
Bit depth                                : 8 bits
Scan type                                : Progressive
Bits/(Pixel*Frame)                       : 0.055
Stream size                              : 601 MiB (76%)
Writing library                          : x264 core 148
Default                                  : Yes
Forced                                   : No

Audio #1
ID                                       : 3
Format                                   : AAC
Format/Info                              : Advanced Audio Codec
Format profile                           : LC
Codec ID                                 : A_AAC-2
Duration                                 : 1 h 33 min
Bit rate                                 : 192 kb/s
Channel(s)                               : 2 channels
Channel positions                        : Front: L R
Sampling rate                            : 48.0 kHz
Frame rate                               : 46.875 FPS (1024 SPF)
Compression mode                         : Lossy
Stream size                              : 128 MiB (16%)
Language                                 : Hindi
Default                                  : Yes
Forced                                   : No

Audio #2
ID                                       : 4
Format                                   : AAC
Format/Info                              : Advanced Audio Codec
Format profile                           : LC
Codec ID                                 : A_AAC-2
Duration                                 : 1 h 33 min
Bit rate                                 : 96.0 kb/s
Channel(s)                               : 2 channels
Channel positions                        : Front: L R
Sampling rate                            : 48.0 kHz
Frame rate                               : 46.875 FPS (1024 SPF)
Compression mode                         : Lossy
Stream size                              : 64.2 MiB (8%)
Language                                 : English
Default                                  : No
Forced                                   : No

Text
ID                                       : 2
Format                                   : UTF-8
Codec ID                                 : S_TEXT/UTF8
Codec ID/Info                            : UTF-8 Plain Text
Duration                                 : 1 h 27 min
Bit rate                                 : 43 b/s
Count of elements                        : 868
Stream size                              : 27.5 KiB (0%)
Language                                 : English
Default                                  : Yes
Forced                                   : No


Click To View Image

https://pichub.site/image/kUAlv
https://pichub.site/image/kUgy9
https://pichub.site/image/kUmLu
https://pichub.site/image/kUuQR
https://pichub.site/image/kUNds
https://pichub.site/image/kUUGB


Similar torrents

Name 
DL
Uploader
Size 
S/L 
Added

  User comments

No comments have been posted yet.


Post anonymous comment
:) :( :D :P :-) B) 8o :? 8) ;) :-* :-( :| O:-D :-@ :facepalm :o) brb :warn :help :bad :love :idea :bomb :!


CAPTCHA Image