Poll

Story of my life
Slumdog Millionaire
21%

Inception
46%

Titanic
21%

Freaky Friday
12%

Votes: 81


Log in or register
to cast your vote!

  Torrent details for "Dragon Ball Super Broly 2019 720p HDTC x264 [MW]"

Loading...
Torrent details
Cover
Download
Torrent rating (0 rated)
Controls:
Category:
Language:
English English
Total Size:
1.06 GB
Info Hash:
034ebfd6aee1866a1ac6f07c7fa23387a463568b
Added By:
Added:  
29-01-2019 16:15 (edited 29-01-2019 16:16) by MovieFreak:_trusted_uploader::_male::_sitelover::_junkie:
Views:
602
Health:
Seeds:
15
Leechers:
0
Completed:
1,683

File List : 
Genre:
Animation, Action, Fantasy
Runtime:
100 min    -    Rating: 8.5
Plot:
Goku and Vegeta encounter Broly, a Saiyan warrior unlike any fighter they've faced before.

Description




General
Format                                   : Matroska
Format version                           : Version 4
File size                                : 1.06 GiB
Duration                                 : 1 h 41 min
Overall bit rate                         : 1 502 kb/s

Video
ID                                       : 1
Format                                   : AVC
Format/Info                              : Advanced Video Codec
Format profile                           : [email protected]
Format settings                          : CABAC / 4 Ref Frames
Format settings, CABAC                   : Yes
Format settings, RefFrames               : 4 frames
Codec ID                                 : V_MPEG4/ISO/AVC
Duration                                 : 1 h 41 min
Bit rate                                 : 1 400 kb/s
Width                                    : 1 280 pixels
Height                                   : 720 pixels
Display aspect ratio                     : 16:9
Frame rate mode                          : Constant
Frame rate                               : 26.706 FPS
Color space                              : YUV
Chroma subsampling                       : 4:2:0
Bit depth                                : 8 bits
Scan type                                : Progressive
Bits/(Pixel*Frame)                       : 0.057
Stream size                              : 996 MiB (91%)
Writing library                          : x264 core 157 r2935 545de2f
Default                                  : Yes
Forced                                   : No

Audio
ID                                       : 2
Format                                   : AAC LC
Format/Info                              : Advanced Audio Codec Low Complexity
Codec ID                                 : A_AAC-2
Duration                                 : 1 h 41 min
Bit rate                                 : 127 kb/s
Channel(s)                               : 2 channels
Channel layout                           : L R
Sampling rate                            : 48.0 kHz
Frame rate                               : 46.875 FPS (1024 SPF)
Compression mode                         : Lossy
Stream size                              : 91.8 MiB (8%)
Language                                 : English
Default                                  : Yes
Forced                                   : No


Click To View Image

https://pichub.site/image/kUlQ0
https://pichub.site/image/kUXGT
https://pichub.site/image/kU3OD
https://pichub.site/image/kUnZN
https://pichub.site/image/kUZAZ
https://pichub.site/image/kU16g


  User comments

Posted: 2019-01-30 17:50:23 (11Wks ago) Report

avatar
Reppoints: 0
Dragon Ball Super Broly

As of 29 January 2019, Dragon Ball Super: Broly has grossed $28.5 million in the United States and Canada, and $70.1 million in other territories, including $34.2 million in Japan, for a total worldwide gross of $98.6 million.
J


Post anonymous comment
:) :( :D :P :-) B) 8o :? 8) ;) :-* :-( :| O:-D :-@ :o) brb :warn :help :bad :love :idea :bomb :!


CAPTCHA Image