Torrent details for "Aquaman 2018 720p HC HDRip x264 [MW]"    Log in to bookmark

Loading...
Loading...
Torrent details
Cover
Download
Torrent rating (0 rated)
Controls:
Category:
Language:
English English
Total Size:
1.30 GB
Info Hash:
21f6a0eb23ea83df20f464f849682c5f1fdbf7d0
Added By:
Added:  
29-01-2019 17:14
Views:
779
Health:
Seeds:
23
Leechers:
7
Completed:
1,287

File List (1) : 
Title:
Aquaman (2018)
Genre:
Action, Adventure, Fantasy, Sci-Fi
Runtime:
143 min    -    Rating: 8.5
Director:
Plot:
Arthur Curry learns that he is the heir to the underwater kingdom of Atlantis, and must step forward to lead his people and be a hero to the world.

Description




General
Format                                   : Matroska
Format version                           : Version 4
File size                                : 1.30 GiB
Duration                                 : 2 h 22 min
Overall bit rate                         : 1 307 kb/s

Video
ID                                       : 1
Format                                   : AVC
Format/Info                              : Advanced Video Codec
Format profile                           : [email protected]
Format settings                          : CABAC / 4 Ref Frames
Format settings, CABAC                   : Yes
Format settings, RefFrames               : 4 frames
Codec ID                                 : V_MPEG4/ISO/AVC
Duration                                 : 2 h 22 min
Bit rate                                 : 1 200 kb/s
Width                                    : 1 280 pixels
Height                                   : 532 pixels
Display aspect ratio                     : 2.40:1
Frame rate mode                          : Constant
Frame rate                               : 29.970 (30000/1001) FPS
Color space                              : YUV
Chroma subsampling                       : 4:2:0
Bit depth                                : 8 bits
Scan type                                : Progressive
Bits/(Pixel*Frame)                       : 0.059
Stream size                              : 1.17 GiB (90%)
Writing library                          : x264 core 157 r2935 545de2f
Default                                  : Yes
Forced                                   : No

Audio
ID                                       : 2
Format                                   : AAC LC
Format/Info                              : Advanced Audio Codec Low Complexity
Codec ID                                 : A_AAC-2
Duration                                 : 2 h 22 min
Bit rate                                 : 129 kb/s
Channel(s)                               : 2 channels
Channel layout                           : L R
Sampling rate                            : 48.0 kHz
Frame rate                               : 46.875 FPS (1024 SPF)
Compression mode                         : Lossy
Stream size                              : 131 MiB (10%)
Language                                 : English
Default                                  : Yes
Forced                                   : No


Click To View Image

https://pichub.site/image/kUTCX
https://pichub.site/image/kUHfI
https://pichub.site/image/kUFr8
https://pichub.site/image/kUQWJ
https://pichub.site/image/kUb75
https://pichub.site/image/kUeNh


Similar torrents

Name 
DL
Uploader
Size 
S/L 
Added
1.45 GB
13,285
[222/25]
23/01/19 23:24
-
2.99 GB
12,469
[46/8]
18/12/18 14:07
-
1.19 GB
890
[37/10]
24/01/19 12:47
-
1.13 GB
2,740
[32/9]
03/01/19 09:20
-
1.40 GB
16,730
[31/5]
23/12/18 03:48

  User comments

No comments have been posted yet.


Post anonymous comment
:) :( :D :P :-) B) 8o :? 8) ;) :-* :-( :| O:-D :-@ :facepalm :o) brb :warn :help :bad :love :idea :bomb :!


CAPTCHA Image