Torrent details for "Uri The Surgical Strike 2019 720p Hindi PRE DVDRip x264 [MW]"    Log in to bookmark

Loading...
Loading...
Torrent details
Cover
Download
Torrent rating (0 rated)
Controls:
Category:
Language:
Hindi Hindi
Total Size:
1.10 GB
Info Hash:
0e984a51b059a5338a5d51d6b32b476cabd4938c
Added By:
Added:  
30-01-2019 08:39
Views:
1,071
Health:
Seeds:
15
Leechers:
4
Completed:
3,374

File List (1) : 
Genre:
Action, Drama
Runtime:
138 min    -    Rating: 9.4
Director:
Plot:
Based on the true events of 2016, when Indian Army avenged a deadly terrorist attack by carrying out a surgical strike.

Description




General
Format                                   : Matroska
Format version                           : Version 4
File size                                : 1.10 GiB
Duration                                 : 2 h 7 min
Overall bit rate                         : 1 232 kb/s

Video
ID                                       : 1
Format                                   : AVC
Format/Info                              : Advanced Video Codec
Format profile                           : [email protected]
Format settings                          : CABAC / 4 Ref Frames
Format settings, CABAC                   : Yes
Format settings, RefFrames               : 4 frames
Codec ID                                 : V_MPEG4/ISO/AVC
Duration                                 : 2 h 7 min
Bit rate                                 : 1 100 kb/s
Width                                    : 1 280 pixels
Height                                   : 544 pixels
Display aspect ratio                     : 2.35:1
Frame rate mode                          : Constant
Frame rate                               : 25.000 FPS
Color space                              : YUV
Chroma subsampling                       : 4:2:0
Bit depth                                : 8 bits
Scan type                                : Progressive
Bits/(Pixel*Frame)                       : 0.063
Stream size                              : 1 006 MiB (89%)
Writing library                          : x264 core 157 r2935 545de2f

Audio
ID                                       : 2
Format                                   : AAC LC
Codec ID                                 : A_AAC-2
Duration                                 : 2 h 7 min
Bit rate                                 : 129 kb/s
Channel(s)                               : 2 channels
Channel layout                           : L R
Sampling rate                            : 48.0 kHz
Frame rate                               : 46.875 FPS (1024 SPF)
Compression mode                         : Lossy
Stream size                              : 118 MiB (10%)
Language                                 : Hindi


Click To View Image

https://pichub.site/image/kvDNs
https://pichub.site/image/kvVB6
https://pichub.site/image/kv7RY
https://pichub.site/image/kvwJ4
https://pichub.site/image/kvcPt
https://pichub.site/image/kvyhp


  User comments

Post anonymous comment
:) :( :D :P :-) B) 8o :? 8) ;) :-* :-( :| O:-D :-@ :facepalm :o) brb :warn :help :bad :love :idea :bomb :!


CAPTCHA Image