Poll

Story of my life
Slumdog Millionaire
21%

Inception
46%

Titanic
21%

Freaky Friday
12%

Votes: 81


Log in or register
to cast your vote!

  Torrent details for "Tera Intezaar 2017 Hindi 720p WEB-DL x264 [MW]"

Loading...
Torrent details
Cover
Download
Torrent rating (0 rated)
Controls:
Category:
Language:
Hindi Hindi
Total Size:
1.13 GB
Info Hash:
584be507813a29a62fe9d44d812dee04606663e7
Added By:
Added:  
30-01-2019 08:40
Views:
199
Health:
Seeds:
1
Leechers:
2
Completed:
25

File List : 
Title:
Genre:
Romance, Thriller
Runtime:
108 min    -    Rating: 1.6
Director:
Plot:
n/A

Description




General
Format                                   : Matroska
Format version                           : Version 4
File size                                : 1.13 GiB
Duration                                 : 1 h 46 min
Overall bit rate                         : 1 522 kb/s

Video
ID                                       : 1
Format                                   : AVC
Format/Info                              : Advanced Video Codec
Format profile                           : [email protected]
Format settings                          : CABAC / 4 Ref Frames
Format settings, CABAC                   : Yes
Format settings, RefFrames               : 4 frames
Codec ID                                 : V_MPEG4/ISO/AVC
Duration                                 : 1 h 46 min
Bit rate                                 : 1 400 kb/s
Width                                    : 1 280 pixels
Height                                   : 548 pixels
Display aspect ratio                     : 2.35:1
Frame rate mode                          : Constant
Frame rate                               : 24.000 FPS
Color space                              : YUV
Chroma subsampling                       : 4:2:0
Bit depth                                : 8 bits
Scan type                                : Progressive
Bits/(Pixel*Frame)                       : 0.083
Stream size                              : 1.04 GiB (91%)
Writing library                          : x264 core 157 r2935 545de2f

Audio
ID                                       : 2
Format                                   : AAC LC
Codec ID                                 : A_AAC-2
Duration                                 : 1 h 46 min
Bit rate                                 : 128 kb/s
Channel(s)                               : 2 channels
Channel layout                           : L R
Sampling rate                            : 48.0 kHz
Frame rate                               : 46.875 FPS (1024 SPF)
Compression mode                         : Lossy
Stream size                              : 97.6 MiB (8%)
Language                                 : Hindi


Click To View Image

https://pichub.site/image/kvCoy
https://pichub.site/image/kvtV0
https://pichub.site/image/kvzUV
https://pichub.site/image/kvBRN
https://pichub.site/image/kv81T
https://pichub.site/image/kvKKD


  User comments

No comments have been posted yet.


Post anonymous comment
:) :( :D :P :-) B) 8o :? 8) ;) :-* :-( :| O:-D :-@ :o) brb :warn :help :bad :love :idea :bomb :!


CAPTCHA Image