Poll

Story of my life
Slumdog Millionaire
22%

Inception
45%

Titanic
21%

Freaky Friday
13%

Votes: 78


Log in or register
to cast your vote!

  Torrent details for "Pihu 2018 Hindi 720p WEB-DL x264 [MW]"

Loading...
Torrent details
Cover
Download
Torrent rating (0 rated)
Controls:
Category:
Language:
Hindi Hindi
Total Size:
864.84 MB
Info Hash:
4d1fcfda58d8b3cb01876cc0792bfcac0d491d1a
Added By:
Added:  
30-01-2019 09:54
Views:
211
Health:
Seeds:
10
Leechers:
0
Completed:
79

File List : 
Title:
Pihu (2018)
Genre:
Drama, Thriller
Runtime:
122 min    -    Rating: 6.7
Director:
Plot:
The social thriller starring the two year baby girl. She is living in a home where the adults are going through a complicated phase. Being a toddler, she is occasionally trapped in the...

Description




General
Format                                   : Matroska
Format version                           : Version 4
File size                                : 865 MiB
Duration                                 : 1 h 30 min
Overall bit rate                         : 1 339 kb/s

Video
ID                                       : 1
Format                                   : AVC
Format/Info                              : Advanced Video Codec
Format profile                           : [email protected]
Format settings                          : CABAC / 4 Ref Frames
Format settings, CABAC                   : Yes
Format settings, RefFrames               : 4 frames
Codec ID                                 : V_MPEG4/ISO/AVC
Duration                                 : 1 h 30 min
Bit rate                                 : 1 250 kb/s
Width                                    : 1 280 pixels
Height                                   : 540 pixels
Display aspect ratio                     : 2.40:1
Frame rate mode                          : Constant
Frame rate                               : 24.000 FPS
Color space                              : YUV
Chroma subsampling                       : 4:2:0
Bit depth                                : 8 bits
Scan type                                : Progressive
Bits/(Pixel*Frame)                       : 0.075
Stream size                              : 781 MiB (90%)
Writing library                          : x264 core 157 r2935 545de2f
Default                                  : Yes
Forced                                   : No

Audio
ID                                       : 2
Format                                   : AAC LC
Codec ID                                 : A_AAC-2
Duration                                 : 1 h 30 min
Bit rate                                 : 127 kb/s
Channel(s)                               : 2 channels
Channel layout                           : L R
Sampling rate                            : 48.0 kHz
Frame rate                               : 46.875 FPS (1024 SPF)
Compression mode                         : Lossy
Delay relative to video                  : -21 ms
Stream size                              : 82.2 MiB (10%)
Language                                 : Hindi
Default                                  : Yes
Forced                                   : No


Click To View Image

https://pichub.site/image/kvL9h
https://pichub.site/image/kvpKr
https://pichub.site/image/kv2Xk
https://pichub.site/image/kvlJQ
https://pichub.site/image/kv6iv


  User comments

No comments have been posted yet.


Post anonymous comment
:) :( :D :P :-) B) 8o :? 8) ;) :-* :-( :| O:-D :-@ :o) brb :warn :help :bad :love :idea :bomb :!


CAPTCHA Image