Poll

Story of my life
Slumdog Millionaire
22%

Inception
45%

Titanic
21%

Freaky Friday
13%

Votes: 78


Log in or register
to cast your vote!

  Torrent details for "Sallu Ki Shaadi 2017 Hindi 720p WEB-DL x264 [MW]"

Loading...
Torrent details
Cover
Download
Torrent rating (0 rated)
Controls:
Category:
Language:
Hindi Hindi
Total Size:
869.90 MB
Info Hash:
160564ca350fa88470034fd429cbe03705e13b50
Added By:
Added:  
30-01-2019 09:54
Views:
260
Health:
Seeds:
1
Leechers:
2
Completed:
49

File List : 
Title:
Genre:
Romance
Runtime:
n/A    -    Rating: 6
Plot:
Know what this is about? Be the first one to add a plot.

Description




General
Format                                   : Matroska
Format version                           : Version 4
File size                                : 870 MiB
Duration                                 : 1 h 48 min
Overall bit rate                         : 1 124 kb/s

Video
ID                                       : 1
Format                                   : AVC
Format/Info                              : Advanced Video Codec
Format profile                           : [email protected]
Format settings                          : CABAC / 4 Ref Frames
Format settings, CABAC                   : Yes
Format settings, RefFrames               : 4 frames
Codec ID                                 : V_MPEG4/ISO/AVC
Duration                                 : 1 h 48 min
Bit rate                                 : 1 000 kb/s
Width                                    : 1 280 pixels
Height                                   : 536 pixels
Display aspect ratio                     : 2.40:1
Frame rate mode                          : Constant
Frame rate                               : 24.000 FPS
Color space                              : YUV
Chroma subsampling                       : 4:2:0
Bit depth                                : 8 bits
Scan type                                : Progressive
Bits/(Pixel*Frame)                       : 0.061
Stream size                              : 770 MiB (88%)
Writing library                          : x264 core 157 r2935 545de2f
Default                                  : Yes
Forced                                   : No

Audio
ID                                       : 2
Format                                   : AAC LC
Codec ID                                 : A_AAC-2
Duration                                 : 1 h 48 min
Bit rate                                 : 127 kb/s
Channel(s)                               : 2 channels
Channel layout                           : L R
Sampling rate                            : 48.0 kHz
Frame rate                               : 46.875 FPS (1024 SPF)
Compression mode                         : Lossy
Stream size                              : 98.4 MiB (11%)
Default                                  : Yes
Forced                                   : No


Click To View Image

https://pichub.site/image/kvPpd
https://pichub.site/image/kvscu
https://pichub.site/image/kv3vR
https://pichub.site/image/kv9SB
https://pichub.site/image/kvZ9s
https://pichub.site/image/kvHgY


  User comments

No comments have been posted yet.


Post anonymous comment
:) :( :D :P :-) B) 8o :? 8) ;) :-* :-( :| O:-D :-@ :o) brb :warn :help :bad :love :idea :bomb :!


CAPTCHA Image