Poll

Story of my life
Slumdog Millionaire
21%

Inception
46%

Titanic
21%

Freaky Friday
12%

Votes: 81


Log in or register
to cast your vote!

  Torrent details for "Teen Wolf Season 1 Obey"

Loading...
Torrent details
Cover
Download
Torrent rating (0 rated)
Controls:
Category:
Language:
English English
Total Size:
4.10 GB
Info Hash:
43e1571727b0e537d303e95b388609265fff9fa3
Added By:
Obey:_trusted_uploader::_sitefriend::_male::_junkie::_kitty::_sun::_turtle:  
Added:  
10-02-2019 06:02 (edited 26-02-2019 03:15) by Obey:_trusted_uploader::_sitefriend::_male::_junkie::_kitty::_sun::_turtle:
Views:
216
Health:
Seeds:
4
Leechers:
4
Completed:
21

File List : 
Title:
Teen Wolf (2011)
Genre:
Action, Drama, Fantasy, Romance, Thriller
Runtime:
41 min    -    Rating: 7.7
Director:
n/A
Plot:
Scott McCall was just another kid in high school. Until, one night his best friend Stiles brings him to the woods, to look for a dead body, and Scott is bitten by a werewolf. Being a werewolf came with its perks- stronger, faster, new star in the lacrosse team, popularity- but also made it hard to control his anger. Scott has also fallen for the new girl in town, Allison, whose dad is trying to hunt and kill Scott. Scott now has to try and balance his out of control life, figure out how to control his new powers, try not to be killed by the alpha that bit him, and protect Allison- and keep her from finding out his big secret.

Description
General
Complete name              Teen Wolf Season 1\Teen.Wolf.S01E01.HDTV.XviD-FQM.Pilot.Obey
Format                                   : AVI
Format/Info                              : Audio Video Interleave
File size                                : 350 MiB
Duration                                 : 40 min 15 s
Overall bit rate mode                    : Variable
Overall bit rate                         : 1 217 kb/s
Writing application                      : transcode-1.0.4

Video
ID                                       : 0
Format                                   : MPEG-4 Visual
Format profile                           : Advanced [email protected]
Format settings                          : BVOP2
Format settings, BVOP                    : 2
Format settings, QPel                    : No
Format settings, GMC                     : No warppoints
Format settings, Matrix                  : Default (H.263)
Codec ID                                 : XVID
Codec ID/Hint                            : XviD
Duration                                 : 40 min 15 s
Bit rate                                 : 1 046 kb/s
Width                                    : 624 pixels
Height                                   : 352 pixels
Display aspect ratio                     : 16:9
Frame rate                               : 23.976 (24000/1001) FPS
Color space                              : YUV
Chroma subsampling                       : 4:2:0
Bit depth                                : 8 bits
Scan type                                : Progressive
Compression mode                         : Lossy
Bits/(Pixel*Frame)                       : 0.199
Stream size                              : 301 MiB (86%)
Writing library                          : XviD 1.2.1 (UTC 2008-12-04)

Audio
ID                                       : 1
Format                                   : MPEG Audio
Format version                           : Version 1
Format profile                           : Layer 3
Codec ID                                 : 55
Codec ID/Hint                            : MP3
Duration                                 : 40 min 15 s
Bit rate mode                            : Variable
Bit rate                                 : 128 kb/s
Channel(s)                               : 2 channels
Sampling rate                            : 48.0 kHz
Compression mode                         : Lossy
Stream size                              : 45.6 MiB (13%)
Alignment                                : Aligned on interleaves
Interleave, duration                     : 24  ms (0.58 video frame)
 












 

Similar torrents

Name 
DL
Uploader
Size 
S/L 
Added
-
5.81 GB
162
[4/0]
12/02/19 14:30
-
7.09 GB
126
[3/3]
26/02/19 03:55

  User comments

No comments have been posted yet.


Post anonymous comment
:) :( :D :P :-) B) 8o :? 8) ;) :-* :-( :| O:-D :-@ :o) brb :warn :help :bad :love :idea :bomb :!


CAPTCHA Image