Torrent details for "Thugs Of Hindostan 2018 Hindi 1080p BluRay x264 DTS [MW]"

Loading...
Torrent details
Cover
Download
Torrent rating (0 rated)
Controls:
Category:
Language:
Hindi
Total Size:
3.34 GB
Info Hash:
ef5dd2e43892cc600d30807f7b206853c2ce2951
Added By:
Added:  
10-02-2019 08:05
Views:
136
Health:
Seeds:
12
Leechers:
3
Completed:
399

File List : 
Title:
Genre:
Action, Adventure
Runtime:
164 min    -    Rating: 4.8
Plot:
Vijay Krishna Acharya (Victor), the writer-director of the all-time YRF blockbuster DHOOM:3, teams up once again with Aamir Khan in THUGS OF HINDOSTAN along with Amitabh Bachchan to give the audience a never seen before experience of larger than life filmmaking. This YRF film holds a double bonanza by bringing together Amitabh Bachchan and Aamir Khan together for the first time ever. That in itself, is film lore in making. The film is set to treat audiences across age groups with the biggest jaw-dropping action sequences seen by audiences on screen to date. With its edge-of-the-seat thrills and an epic adventure and war on the seas, the film is set to light up this Diwali.

Description




General
Format : Matroska
Format version : Version 4
File size : 3.34 GiB
Duration : 2 h 44 min
Overall bit rate : 2 906 kb/s

Video
ID : 1
Format : AVC
Format/Info : Advanced Video Codec
Format profile : [email protected]
Format settings : CABAC / 4 Ref Frames
Format settings, CABAC : Yes
Format settings, RefFrames : 4 frames
Codec ID : V_MPEG4/ISO/AVC
Duration : 2 h 44 min
Bit rate : 2 150 kb/s
Width : 1 920 pixels
Height : 804 pixels
Display aspect ratio : 2.40:1
Frame rate mode : Constant
Frame rate : 24.000 FPS
Color space : YUV
Chroma subsampling : 4:2:0
Bit depth : 8 bits
Scan type : Progressive
Bits/(Pixel*Frame) : 0.058
Stream size : 2.46 GiB (74%)
Writing library : x264 core 157 r2935 545de2f

Audio
ID : 2
Format : DTS
Format/Info : Digital Theater Systems
Codec ID : A_DTS
Duration : 2 h 44 min
Bit rate mode : Constant
Bit rate : 768 kb/s
Channel(s) : 6 channels
Channel layout : C L R Ls Rs LFE
Sampling rate : 48.0 kHz
Frame rate : 93.750 FPS (512 SPF)
Bit depth : 16 bits
Compression mode : Lossy
Stream size : 903 MiB (26%)
Language : Hindi
Default : Yes
Forced : No

Text
ID : 3
Format : UTF-8
Codec ID : S_TEXT/UTF8
Codec ID/Info : UTF-8 Plain Text
Duration : 2 h 37 min
Bit rate : 34 b/s
Count of elements : 1277
Stream size : 39.1 KiB (0%)
Default : Yes
Forced : No


Click To View Image

https://pichub.site/image/k0p4Q
https://pichub.site/image/k0r6k
https://pichub.site/image/k02Cv
https://pichub.site/image/k05rd
https://pichub.site/image/k0lQ9
https://pichub.site/image/k0XNR


  User comments

No comments have been posted yet.


Post anonymous comment
:) :( :D :P :-) B) 8o :? 8) ;) :-* :-( :| O:-D :-@ :o) brb :warn :help :bad :love :idea :bomb :!


CAPTCHA Image