Poll

Story of my life
Slumdog Millionaire
20%

Inception
46%

Titanic
21%

Freaky Friday
12%

Votes: 84


Log in or register
to cast your vote!

  Torrent details for "Agatha.and.the.Truth.of.Murder.2018.HDRip.XviD.AC3.LLG"

Loading...
Torrent details
Cover
Download
Torrent rating (0 rated)
Controls:
Category:
Language:
English English
Total Size:
927.30 MB
Info Hash:
f1dd965296c0dd5064c9d8f6bf19b60f1d479b50
Added By:
Added:  
11-02-2019 09:47
Views:
195
Health:
Seeds:
0
Leechers:
0
Completed:
3

File List : 
Genre:
Crime
Runtime:
92 min    -    Rating: 7.4
Director:
Plot:
In 1926, with her personal life in tatters and her writing in crisis, a young Agatha Christie decides to solve a real-life murder.

Description

Quote:



******************************Thumbnail:**********************



******************************Screenshots:********************

Screenshot 1

Screenshot 2

Screenshot 3

Screenshot 4

Screenshot 5

Screenshot 6

Screenshot 7

Screenshot 8

Screenshot 9

Screenshot 0


******************************************************

Agatha.and.the.Truth.of.Murder.2018.HDRip.XviD.AC3.LLG.mp4
Format                                   : MPEG-4
Format profile                           : Base Media
Codec ID                                 : isom (isom/iso2/avc1/mp41)
File size                                : 919 MiB
Duration                                 : 1 h 32 min
Overall bit rate mode                    : Variable
Overall bit rate                         : 1 391 kb/s
Writing application                      : Lavf57.83.100

Video
ID                                       : 1
Format                                   : AVC
Format/Info                              : Advanced Video Codec
Format profile                           : [email protected]
Format settings                          : CABAC / 1 Ref Frames
Format settings, CABAC                   : Yes
Format settings, RefFrames               : 1 frame
Codec ID                                 : avc1
Codec ID/Info                            : Advanced Video Coding
Duration                                 : 1 h 32 min
Bit rate mode                            : Variable
Bit rate                                 : 1 196 kb/s
Maximum bit rate                         : 3 600 kb/s
Width                                    : 720 pixels
Height                                   : 360 pixels
Display aspect ratio                     : 2.000
Frame rate mode                          : Constant
Frame rate                               : 25.000 FPS
Color space                              : YUV
Chroma subsampling                       : 4:2:0
Bit depth                                : 8 bits
Scan type                                : Progressive
Bits/(Pixel*Frame)                       : 0.184
Stream size                              : 790 MiB (86%)
Codec configuration box                  : avcC

Audio
ID                                       : 2
Format                                   : AC-3
Format/Info                              : Audio Coding 3
Commercial name                          : Dolby Digital
Codec ID                                 : ac-3
Duration                                 : 1 h 32 min
Bit rate mode                            : Constant
Bit rate                                 : 192 kb/s
Channel(s)                               : 6 channels
Channel layout                           : L R C LFE Ls Rs
Sampling rate                            : 48.0 kHz
Frame rate                               : 31.250 FPS (1536 SPF)
Bit depth                                : 16 bits
Compression mode                         : Lossy
Stream size                              : 127 MiB (14%)
Service kind                             : Complete Main
Default                                  : Yes
Alternate group                          : 1



********************************************************


  User comments

No comments have been posted yet.


Post anonymous comment
:) :( :D :P :-) B) 8o :? 8) ;) :-* :-( :| O:-D :-@ :o) brb :warn :help :bad :love :idea :bomb :!


CAPTCHA Image