Torrent details for "Men.In.Black.International.2019.NEW.HQ.HC-TC.(V2).XviD.B4ND1T69"    Log in to bookmark

Loading...
Loading...
Torrent details
Staff pick! This torrent was recommended by Ange1:_moderator::_female::_sitelover::_sun: on 2019-06-27 07:16:43.
Cover
Download
Torrent rating (4 rated)
Controls:
Category:
Language:
English English
Total Size:
1.26 GB
Info Hash:
835fa518cb06e483fc0f791fbf6646da7ae37a69
Added By:
Added:  
26-06-2019 09:47
Views:
18,697
Health:
Seeds:
37
Leechers:
18
Completed:
20,570

File List (6) : 
Thanks for rating :
bigboy12:_moderator::_male::_sitelover::_sun::_turtle: (5), gaby63nav:_male: (5), Michael5867:_male: (5), rapskaLL23:_male: (5),

Genre:
Action, Adventure, Comedy, Sci-Fi
Runtime:
114 min    -    Rating: 5.5
Director:
Plot:
The Men in Black have always protected the Earth from the scum of the universe. In this new adventure, they tackle their biggest threat to date: a mole in the Men in Black organization.

Description
Men.In.Black.International.2019.NEW.HQ.HC-TC.(V2).XviD.B4ND1T69



Director: F. Gary Gray
Writers: Matt Holloway, Art Marcum
Stars: Chris Hemsworth, Tessa Thompson, Kumail Nanjiani

Plot/Story:
The Men in Black have always protected the Earth from the scum of the universe. In this new adventure, they tackle their biggest threat to date: a mole in the Men in Black organization.

Notes:
NEW Cleaner print, NO ads, logos, floaty crap, just the movie
Remade the audio file, brightened the print, reset the AR, blurred out the one line of text that appears, re-syned the new audio to match...Enjoy.

General
Complete name               : Men.In.Black.International.2019.NEW.HQ.HC-TC.(V2).XviD.B4ND1T69.avi
Format                      : AVI
Format/Info                 : Audio Video Interleave
Format profile              : OpenDML
File size                   : 1.20 GiB
Duration                    : 1 h 44 min
Overall bit rate            : 1 641 kb/s
Samples                     : Yes...3 included

Video
ID                          : 0
Format                      : MPEG-4 Visual
Format profile              : Advanced Simple@L4
Format settings, BVOP       : 2
Format settings, QPel       : No
Format settings, GMC        : No warppoints
Format settings, Matrix     : Default (H.263)
Codec ID                    : XVID
Codec ID/Hint               : XviD
Duration                    : 1 h 44 min
Bit rate                    : 1 497 kb/s
Width                       : 720 pixels
Height                      : 368 pixels
Display aspect ratio        : 1.957
Frame rate                  : 24.000 FPS
Color space                 : YUV
Chroma subsampling          : 4:2:0
Bit depth                   : 8 bits
Scan type                   : Progressive
Compression mode            : Lossy
Bits/(Pixel*Frame)          : 0.235
Stream size                 : 1.09 GiB (91%)
Writing library             : XviD 64

Audio
ID                          : 1
Format                      : MPEG Audio
Format version              : Version 1
Format profile              : Layer 3
Mode                        : Joint stereo
Mode extension              : MS Stereo
Codec ID                    : 55
Codec ID/Hint               : MP3
Duration                    : 1 h 44 min
Bit rate mode               : Constant
Bit rate                    : 128 kb/s
Channel(s)                  : 2 channels
Sampling rate               : 48.0 kHz
Compression mode            : Lossy
Stream size                 : 95.7 MiB (8%)
Alignment                   : Aligned on interleaves
Interleave, duration        : 24  ms (0.58 video frame)

Screenshots:











Please Seed For As Long As Possible
Or At Least 1:1 Ratio...Thanks
Enjoy Peeps

  User comments

Posted: 2019-06-26 16:23:42 (16Wks ago) Report

avatar
Reppoints: 65
You've done a really nice job with the original 'untouched' Chinese source file there B4ND1T69. Looks tons better than the copies that have been posted so far!


Posted: 2019-06-26 17:01:13 (16Wks ago) Report

avatar
Reppoints: 15
Yes Bro wicked encode *****


Posted: 2019-06-27 06:50:48 (16Wks ago) Report

avatar
Reppoints: 0
wow SS was good ty mate seederssssssss plssssss ;)


Posted: 2019-06-27 10:44:29 (16Wks ago) Report

avatar
Reppoints: 0
Thank you B4ND1T69
This looks a million times better than other available at the moment...


Posted: 2019-06-27 20:52:49 (16Wks ago) Report

avatar
Reppoints: 658
Thank's B4ND1T69. All I can say for this piece of work is  WOW !!! , know what's on the menu for tonight, have to give full points on this.:)


Posted: 2019-07-05 08:40:19 (14Wks ago) Report

avatar
Reppoints: 0
Good job


Post anonymous comment
:) :( :D :P :-) B) 8o :? 8) ;) :-* :-( :| O:-D :-@ :facepalm :o) brb :warn :help :bad :love :idea :bomb :!


CAPTCHA Image