Torrent details for "The Curse of La Llorona - La Llorona - Le lacrime del male (2019).720p.H264.ita.eng.Ac3-5.1.sub.ita...."    Log in to bookmark

Loading...
Loading...
Torrent details
Cover
Download
Torrent rating (0 rated)
Controls:
Category:
Language:
English English
Total Size:
1.83 GB
Info Hash:
a5e977f8edc91354774a5cb1a58811e2d9c574b5
Added By:
Added:  
01-08-2019 17:06
Views:
886
Health:
Seeds:
8
Leechers:
1
Completed:
4,472

File List (6) : 
Genre:
Horror, Mystery, Thriller
Runtime:
93 min    -    Rating: 6.1
Plot:
Ignoring the eerie warning of a troubled mother suspected of child endangerment, a social worker and her own small kids are soon drawn into a frightening supernatural realm. Their only hope to survive La Llorona's deadly wrath may be a disillusioned priest and the mysticism he practices to keep evil at bay, on the fringes where fear and faith collide.

Description
The Curse of La Llorona - La Llorona - Le lacrime del male (2019).720p.H264.ita.eng.Ac3-5.1.sub.ita.eng-MIRCrew


NO FOUND ONLY ORIGINAL RELEASE

My release is always in double track audio italian and Original audio
for select it use VLC or dvd player home
not use wmp

La Llorona - Le lacrime del male - The Curse of La Llorona (2019)

Quality MIRCrew on HD 720p da  1,8 gb









Regista: Michael Chaves
Genere: Horror, Thriller
Anno: 2019
Paese: USA
Durata: 93 min



Linda Cardellini, Raymond Cruz, Patricia Velasquez, Marisol Ramirez, Sean Patrick Thomas, John Marshall Jones, Roman Christou, Madeleine McGraw, Jaynee-Lynne Kinchen, Tony Amendola



La Llorona - Le lacrime del male, il film diretto da Michael Chaves, segue la storia di La Llorona. La donna che piange. Un’apparizione terrificante, intrappolata tra il Paradiso e l’Inferno, quella di una donna segnata da un terribile destino che si è creata con le sue stesse mani.



Ignoring the eerie warning of a troubled mother suspected of child endangerment, a social worker and her own small kids are soon drawn into a frightening supernatural realm.

 






General
Unique ID                                : 299188286446091772512736459834408403519 (0xE1159167A360E6591D8B8FA352C1823F)
Complete name                            : a Llorona - Le lacrime del male - The Curse of La Llorona (2019).720p.ita.eng.sub.ita.eng-MIRCrew\La Llorona - Le lacrime del male - The Curse of La Llorona (2019).720p.ita.eng.sub.ita.eng-MIRCrew.mkv
Format                                   : Matroska
Format version                           : Version 2
File size                                : 1.83 GiB
Duration                                 : 1h 33mn
Overall bit rate                         : 2 807 Kbps
Movie name                               : MIRCrew
Encoded date                             : UTC 2019-08-01 13:14:01
Writing application                      : Lavf54.63.100
Writing library                          : Lavf54.63.100
COMMENT                                  : mircrew-releases

Video
ID                                       : 1
Format                                   : AVC
Format/Info                              : Advanced Video Codec
Format profile                           : Main@L4.1
Format settings, CABAC                   : Yes
Format settings, ReFrames                : 2 frames
Codec ID                                 : V_MPEG4/ISO/AVC
Duration                                 : 1h 33mn
Bit rate                                 : 1 900 Kbps
Width                                    : 1 280 pixels
Height                                   : 528 pixels
Display aspect ratio                     : 2.40:1
Frame rate mode                          : Variable
Frame rate                               : 23.976 fps
Color space                              : YUV
Chroma subsampling                       : 4:2:0
Bit depth                                : 8 bits
Scan type                                : Progressive
Bits/(Pixel*Frame)                       : 0.117
Stream size                              : 1.21 GiB (66%)
Title                                    : MIRCrew
Writing library                          : x264 core 130 r2273
Encoding settings                        : cabac=1 / ref=2 / deblock=1:0:0 / analyse=0x1:0x131 / me=hex / subme=7 / psy=1 / psy_rd=1.00:0.00 / mixed_ref=0 / me_range=16 / chroma_me=1 / trellis=1 / 8x8dct=0 / cqm=0 / deadzone=21,11 / fast_pskip=1 / chroma_qp_offset=-2 / threads=9 / lookahead_threads=1 / sliced_threads=0 / nr=0 / decimate=1 / interlaced=0 / bluray_compat=0 / constrained_intra=0 / bframes=3 / b_pyramid=0 / b_adapt=1 / b_bias=0 / direct=3 / weightb=1 / open_gop=0 / weightp=2 / keyint=230 / keyint_min=23 / scenecut=40 / intra_refresh=0 / rc_lookahead=40 / rc=abr / mbtree=1 / bitrate=1900 / ratetol=1.0 / qcomp=0.60 / qpmin=10 / qpmax=69 / qpstep=4 / vbv_maxrate=24000 / vbv_bufsize=24000 / nal_hrd=none / ip_ratio=1.40 / aq=1:1.00
Language                                 : Italian
Default                                  : Yes
Forced                                   : Yes
DURATION                                 : 01:33:14.130000000
NUMBER_OF_FRAMES                         : 134125
NUMBER_OF_BYTES                          : 6590390304
_STATISTICS_WRITING_APP                  : mkvmerge v34.0.0 ('Sight and Seen') 64-bit
_STATISTICS_WRITING_DATE_UTC             : 2019-07-21 12:36:37
_STATISTICS_TAGS                         : BPS DURATION NUMBER_OF_FRAMES NUMBER_OF_BYTES

Audio #1
ID                                       : 2
Format                                   : AC-3
Format/Info                              : Audio Coding 3
Mode extension                           : CM (complete main)
Codec ID                                 : A_AC3
Duration                                 : 1h 33mn
Bit rate mode                            : Constant
Bit rate                                 : 448 Kbps
Channel(s)                               : 6 channels
Channel positions                        : Front: L C R, Side: L R, LFE
Sampling rate                            : 48.0 KHz
Bit depth                                : 16 bits
Compression mode                         : Lossy
Delay relative to video                  : 1mn 5s
Stream size                              : 299 MiB (16%)
Title                                    : Ita Ac3 5.1
Language                                 : Italian
Default                                  : Yes
Forced                                   : No

Audio #2
ID                                       : 3
Format                                   : AC-3
Format/Info                              : Audio Coding 3
Mode extension                           : CM (complete main)
Codec ID                                 : A_AC3
Duration                                 : 1h 33mn
Bit rate mode                            : Constant
Bit rate                                 : 448 Kbps
Channel(s)                               : 6 channels
Channel positions                        : Front: L C R, Side: L R, LFE
Sampling rate                            : 48.0 KHz
Bit depth                                : 16 bits
Compression mode                         : Lossy
Delay relative to video                  : 1mn 5s
Stream size                              : 299 MiB (16%)
Title                                    : Eng Ac3 5.1
Language                                 : English
Default                                  : No
Forced                                   : No
DURATION                                 : 01:33:14.144000000
NUMBER_OF_FRAMES                         : 174817
NUMBER_OF_BYTES                          : 313272064
_STATISTICS_WRITING_APP                  : mkvmerge v34.0.0 ('Sight and Seen') 64-bit
_STATISTICS_WRITING_DATE_UTC             : 2019-07-21 12:36:37
_STATISTICS_TAGS                         : BPS DURATION NUMBER_OF_FRAMES NUMBER_OF_BYTES

Menu
00:00:00.000                             : :Chapter 01
00:09:24.355                             : :Chapter 02
00:18:21.266                             : :Chapter 03
00:28:09.104                             : :Chapter 04
00:38:14.208                             : :Chapter 05
00:48:09.595                             : :Chapter 06
00:58:07.317                             : :Chapter 07
01:09:04.557                             : :Chapter 08
01:18:15.148                             : :Chapter 09
01:26:30.727                             : :Chapter 10







Similar torrents

  User comments

No comments have been posted yet.


Post anonymous comment
:) :( :D :P :-) B) 8o :? 8) ;) :-* :-( :| O:-D :-@ :facepalm :o) brb :warn :help :bad :love :idea :bomb :!


CAPTCHA Image